Angel Has Fallen (2019) 720p WEBRip x264 Dual Audio [Hindi - Eng...

  • Category Movies
  • Type Dubs/Dual Audio
  • Language Hindi
  • Total size 1.1 GB
  • Uploaded By AlejandroAXL
  • Downloads 27323
  • Last checked 3 weeks ago
  • Date uploaded 3 weeks ago
  • Seeders 402
  • Leechers 146

Angel Has Fallen

Action

Secret Service Agent Mike Banning is framed for the attempted assassination of the President and must evade his own agency and the FBI as he tries to uncover the real threat.

Infohash : F12B320CFDA95C3852E7A387C519164A98C0D27A


Visit Our Site https://hdwebmovies.xyz




Angel Has Fallen (2019) 720p WEBRip x264 Dual Audio [Hindi - English DD 2.0] SHADOW [HDWebMovies]









Movie Info



Name - Angel Has Fallen (2019)

NOTE :- This movie UnOfficial Hindi Dubbed

Storyline - Mike Banning is framed for the attempted assassination of the President and must evade his own agency and the FBI as he tries to uncover the real threat.

IMDB : https://www.imdb.com/title/tt6189022/

Directors: Ric Roman Waugh
Stars : Gerard Butler, Frederick Schmidt, Danny Huston

Release date : 21 August 2019 (UK)
File size : 1.08 GB

Encoded by Team ClouD9



Credit goes to - Team Shàdów (HDwebmovies)






[font=Comic Sans MS]General
Unique ID : 199310826344003927835023770469694304082 (0x95F1DE6E3DC34B5F8C61E09905D1EF52)
Complete name : Angel Has Fallen (2019) 720p WEBRip x264 Dual Audio [Hindi - English DD 2.0] SHADOW [HDWebMovies].mkv
Format : Matroska
Format version : Version 4
File size : 1.08 GiB
Duration : 2 h 1 min
Overall bit rate : 1 281 kb/s
Movie name : Angel Has Fallen (2019) 720p WEBRip x264 Dual Audio [Hindi - English DD 2.0] SHADOW [HDWebMovies]
Encoded date : UTC 2019-11-13 22:07:22
Writing application : mkvmerge v8.2.0 ('World of Adventure') 32bit
Writing library : libebml v1.3.1 + libmatroska v1.4.2

Video
ID : 1
Format : AVC
Format/Info : Advanced Video Codec
Format profile : [email protected]
Format settings : CABAC / 4 Ref Frames
Format settings, CABAC : Yes
Format settings, Reference frames : 4 frames
Codec ID : V_MPEG4/ISO/AVC
Duration : 2 h 1 min
Bit rate : 999 kb/s
Width : 1 280 pixels
Height : 544 pixels
Display aspect ratio : 2.35:1
Frame rate mode : Constant
Frame rate : 30.000 FPS
Color space : YUV
Chroma subsampling : 4:2:0
Bit depth : 8 bits
Scan type : Progressive
Bits/(Pixel*Frame) : 0.048
Stream size : 865 MiB (78%)
Title : [HDWebMovies]
Default : Yes
Forced : No

Audio #1
ID : 2
Format : AAC LC
Format/Info : Advanced Audio Codec Low Complexity
Codec ID : A_AAC-2
Duration : 2 h 1 min
Bit rate : 127 kb/s
Channel(s) : 2 channels
Channel layout : L R
Sampling rate : 48.0 kHz
Frame rate : 46.875 FPS (1024 SPF)
Compression mode : Lossy
Delay relative to video : 47 ms
Stream size : 110 MiB (10%)
Title : [HDWebMovies]
Language : Hindi
Default : Yes
Forced : No

Audio #2
ID : 3
Format : AAC LC
Format/Info : Advanced Audio Codec Low Complexity
Codec ID : A_AAC-2
Duration : 2 h 1 min
Bit rate : 150 kb/s
Channel(s) : 2 channels
Channel layout : L R
Sampling rate : 48.0 kHz
Frame rate : 46.875 FPS (1024 SPF)
Compression mode : Lossy
Stream size : 130 MiB (12%)
Title : [HDWebMovies]
Language : English
Default : No
Forced : No
[/font]










Files:

Angel Has Fallen (2019) 720p WEBRip x264 Dual Audio [Hindi - English DD 2.0] SHADOW [HDWebMovies]
  • Angel Has Fallen (2019) 720p WEBRip x264 Dual Audio [Hindi - English DD 2.0] SHADOW [HDWebMovies].mkv (1.1 GB)

Comments

Code:

  • udp://tracker.coppersurfer.tk:6969/announce
  • udp://tracker.opentrackr.org:1337/announce
  • http://tracker1.itzmx.com:8080/announce
  • udp://tracker.cyberia.is:6969/announce
  • udp://bt.firebit.co.uk:6969/announce
  • udp://tracker.leechers-paradise.org:6969/announce
  • udp://tracker.tiny-vps.com:6969/announce
  • udp://9.rarbg.com:2710/announce
  • udp://9.rarbg.me:2730/announce
  • udp://tracker.pirateparty.gr:6969/announce