The.Mandalorian.S01E03.WEBRip.x264-ION10

  • Category TV
  • Type SD
  • Language English
  • Total size 340.5 MB
  • Uploaded By SirMadMax
  • Downloads 21919
  • Last checked 1 week ago
  • Date uploaded 2 weeks ago
  • Seeders 547
  • Leechers 72

Infohash : 7460334382C685A93BCA5DDAC5A802B4085CC121

The.Mandalorian.S01E03.WEBRip.x264-ION10

Season 1, Episode 03 – “Chapter 3: The Sin”
The battered Mandalorian returns to his client to collect the reward.

Video
ID : 1
Format : AVC
Format/Info : Advanced Video Codec
Format profile : [email protected]
Format settings : CABAC / 5 Ref Frames
Format settings, CABAC : Yes
Format settings, Reference frames : 5 frames
Codec ID : avc1
Codec ID/Info : Advanced Video Coding
Duration : 37 min 16 s
Bit rate : 1 015 kb/s
Nominal bit rate : 1 100 kb/s
Width : 720 pixels
Height : 302 pixels
Display aspect ratio : 2.40:1
Original display aspect ratio : 2.40:1
Frame rate mode : Constant
Frame rate : 23.976 (24000/1001) FPS
Color space : YUV
Chroma subsampling : 4:2:0
Bit depth : 8 bits
Scan type : Progressive
Bits/(Pixel*Frame) : 0.195
Stream size : 271 MiB (80%)
Title : The.Mandalorian.S01E03.WEBRip.x264-ION10
Writing library : x264 core 148 r2795M aaa9aa8
Encoding settings : cabac=1 / ref=5 / deblock=1:-1:-1 / analyse=0x3:0x113 / me=umh / subme=9 / psy=1 / psy_rd=1.00:0.15 / mixed_ref=1 / me_range=16 / chroma_me=1 / trellis=2 / 8x8dct=1 / cqm=0 / deadzone=21,11 / fast_pskip=1 / chroma_qp_offset=-3 / threads=24 / lookahead_threads=2 / sliced_threads=0 / nr=0 / decimate=1 / interlaced=0 / bluray_compat=0 / constrained_intra=0 / bframes=3 / b_pyramid=2 / b_adapt=2 / b_bias=0 / direct=3 / weightb=1 / open_gop=0 / weightp=2 / keyint=250 / keyint_min=23 / scenecut=40 / intra_refresh=0 / rc_lookahead=50 / rc=abr / mbtree=1 / bitrate=1100 / ratetol=1.0 / qcomp=0.60 / qpmin=0 / qpmax=69 / qpstep=4 / ip_ratio=1.40 / aq=1:1.00
Encoded date : UTC 2019-11-22 11:13:06
Tagged date : UTC 2019-11-22 11:13:06
Codec configuration box : avcC

Audio
ID : 2
Format : AAC LC
Format/Info : Advanced Audio Codec Low Complexity
Codec ID : mp4a-40-2
Duration : 37 min 17 s
Duration_LastFrame : -11 ms
Bit rate mode : Constant
Bit rate : 256 kb/s
Channel(s) : 2 channels
Channel layout : L R
Sampling rate : 48.0 kHz
Frame rate : 46.875 FPS (1024 SPF)
Compression mode : Lossy
Stream size : 68.3 MiB (20%)
Title : The.Mandalorian.S01E03.WEBRip.x264-ION10
Language : English
Default : Yes
Alternate group : 1
Encoded date : UTC 2019-11-22 11:13:06
Tagged date : UTC 2019-11-22 11:13:06

Files:

The.Mandalorian.S01E03.WEBRip.x264-ION10
  • RARBG.txt (0.0 KB)
  • Subs
    • 10_nor.srt (11.0 KB)
    • 11_Polish.srt (11.2 KB)
    • 12_Portuguese.srt (11.7 KB)
    • 13_Portuguese.srt (11.7 KB)
    • 14_Finnish.srt (11.0 KB)
    • 15_Swedish.srt (10.7 KB)
    • 2_Danish.srt (10.8 KB)
    • 3_German.srt (12.1 KB)
    • 4_English.srt (18.1 KB)
    • 5_Spanish.srt (11.5 KB)
    • 6_Spanish.srt (11.5 KB)
    • 7_French.srt (11.1 KB)
    • 8_Italian.srt (11.3 KB)
    • 9_Dutch.srt (11.3 KB)
  • The.Mandalorian.S01E03.WEBRip.x264-ION10.mp4 (340.4 MB)

Comments

Code:

  • http://tracker.trackerfix.com:80/announce
  • udp://9.rarbg.me:2750/announce
  • udp://9.rarbg.to:2770/announce