It Chapter Two (2019) (1080p BluRay x265 HEVC 10bit AAC 7.1 Q22 J...

  • Category Movies
  • Type HEVC/x265
  • Language English
  • Total size 3.5 GB
  • Uploaded By UTRCorp
  • Downloads 820
  • Last checked 2 days ago
  • Date uploaded 6 days ago
  • Seeders 22
  • Leechers 9

It Chapter Two

Horror

27 years after overcoming the malevolent supernatural entity Pennywise, the former members of the Losers' Club, who have grown up and moved away from Derry, are brought back together by a devastating phone call.

Infohash : 6AC3F69E64D22CECB7850E029B142787B59F1A5D


Media Information

Code:

General
Format : Matroska
Format version : Version 4 / Version 2
File size : 3.48 GiB
Duration : 2 h 49 min
Overall bit rate : 2 944 kb/s
Movie name : It Chapter Two (2019) [1080p x265 q22 S79 Joy] [UTR]
Encoded date : UTC 2019-12-02 18:55:24
Writing application : mkvmerge v40.0.0 ('Old Town Road + Pony') 64-bit
Writing library : libebml v1.3.9 + libmatroska v1.5.2
Cover : Yes
Attachments : cover.jpg
Writing frontend : StaxRip v2.0.2.0, Encoded by JoyBell

Video
ID : 1
Format : HEVC
Format/Info : High Efficiency Video Coding
Format profile : Main [email protected]@Main
Codec ID : V_MPEGH/ISO/HEVC
Duration : 2 h 49 min
Bit rate : 2 408 kb/s
Width : 1 920 pixels
Height : 800 pixels
Display aspect ratio : 2.40:1
Frame rate mode : Constant
Frame rate : 23.976 (24000/1001) FPS
Color space : YUV
Chroma subsampling : 4:2:0
Bit depth : 10 bits
Bits/(Pixel*Frame) : 0.065
Stream size : 2.85 GiB (82%)
Writing library : x265 3.2+9-971180b100f8:[Windows][MSVC 1923][64 bit] 10bit
Encoding settings : cpuid=1111039 / frame-threads=3 / numa-pools=12 / wpp / no-pmode / no-pme / no-psnr / ssim / log-level=2 / input-csp=1 / input-res=1920x800 / interlace=0 / total-frames=243722 / level-idc=0 / high-tier=1 / uhd-bd=0 / ref=4 / no-allow-non-conformance / no-repeat-headers / annexb / no-aud / no-hrd / info / hash=0 / no-temporal-layers / open-gop / min-keyint=23 / keyint=250 / gop-lookahead=0 / bframes=8 / b-adapt=2 / b-pyramid / bframe-bias=40 / rc-lookahead=80 / lookahead-slices=4 / scenecut=40 / radl=0 / no-splice / no-intra-refresh / ctu=64 / min-cu-size=8 / rect / no-amp / max-tu-size=32 / tu-inter-depth=1 / tu-intra-depth=1 / limit-tu=0 / rdoq-level=2 / dynamic-rd=0.00 / ssim-rd / signhide / no-tskip / nr-intra=0 / nr-inter=0 / constrained-intra / strong-intra-smoothing / max-merge=5 / limit-refs=3 / limit-modes / me=3 / subme=5 / merange=57 / temporal-mvp / no-frame-dup / no-hme / weightp / no-weightb / no-analyze-src-pics / deblock=0:0 / sao / no-sao-non-deblock / rd=4 / selective-sao=4 / early-skip / rskip / no-fast-intra / no-tskip-fast / no-cu-lossless / no-b-intra / no-splitrd-skip / rdpenalty=0 / psy-rd=2.10 / psy-rdoq=1.20 / no-rd-refine / no-lossless / cbqpoffs=0 / crqpoffs=0 / rc=crf / crf=21.5 / qcomp=0.60 / qpstep=4 / stats-write=0 / stats-read=0 / ipratio=1.40 / pbratio=1.30 / aq-mode=3 / aq-strength=0.40 / cutree / zone-count=0 / no-strict-cbr / qg-size=32 / no-rc-grain / qpmax=69 / qpmin=0 / no-const-vbv / sar=0 / overscan=0 / videoformat=5 / range=0 / colorprim=2 / transfer=2 / colormatrix=2 / chromaloc=0 / display-window=0 / cll=0,0 / min-luma=0 / max-luma=1023 / log2-max-poc-lsb=8 / vui-timing-info / vui-hrd-info / slices=1 / no-opt-qp-pps / no-opt-ref-list-length-pps / no-multi-pass-opt-rps / scenecut-bias=0.05 / no-opt-cu-delta-qp / no-aq-motion / no-hdr / no-hdr-opt / no-dhdr10-opt / no-idr-recovery-sei / analysis-reuse-level=5 / scale-factor=0 / refine-intra=0 / refine-inter=0 / refine-mv=1 / refine-ctu-distortion=0 / no-limit-sao / ctu-info=0 / no-lowpass-dct / refine-analysis-type=0 / copy-pic=1 / max-ausize-factor=1.0 / no-dynamic-refine / no-single-sei / no-hevc-aq / no-svt / no-field / qp-adaptation-range=1.00
Default : Yes
Forced : No

Audio #1
ID : 2
Format : AAC
Format/Info : Advanced Audio Codec
Format profile : LC
Codec ID : A_AAC
Duration : 2 h 49 min
Bit rate : 424 kb/s
Channel(s) : 8 channels
Channel positions : Front: L C R, Side: L R, Back: L R, LFE
Sampling rate : 48.0 kHz
Frame rate : 46.875 FPS (1024 spf)
Compression mode : Lossy
Delay relative to video : 9 ms
Stream size : 513 MiB (14%)
Language : English
Default : No
Forced : No

Audio #2
ID : 3
Format : AAC
Format/Info : Advanced Audio Codec
Format profile : HE-AAC / LC
Codec ID : A_AAC
Duration : 2 h 49 min
Bit rate : 48.0 kb/s
Channel(s) : 2 channels
Channel positions : Front: L R
Sampling rate : 48.0 kHz / 24.0 kHz
Frame rate : 23.438 FPS (1024 spf)
Compression mode : Lossy
Delay relative to video : 31 ms
Stream size : 57.2 MiB (2%)
Title : Commentary
Language : English
Default : No
Forced : No

Subtitle #1
ID : 4
Format : PGS
Muxing mode : zlib
Codec ID : S_HDMV/PGS
Codec ID/Info : Picture based subtitle format used on BDs/HD-DVDs
Duration : 2 h 44 min
Bit rate : 34.3 kb/s
Count of elements : 5486
Stream size : 40.4 MiB (1%)
Language : English
Default : No
Forced : No

Subtitle #2
ID : 5
Format : VobSub
Muxing mode : zlib
Codec ID : S_VOBSUB
Codec ID/Info : Picture based subtitle format used on DVDs
Duration : 2 h 48 min
Bit rate : 6 164 b/s
Count of elements : 2307
Stream size : 7.43 MiB (0%)
Language : Chinese
Default : No
Forced : No

Subtitle #3
ID : 6
Format : VobSub
Muxing mode : zlib
Codec ID : S_VOBSUB
Codec ID/Info : Picture based subtitle format used on DVDs
Duration : 2 h 48 min
Bit rate : 8 043 b/s
Count of elements : 2340
Stream size : 9.71 MiB (0%)
Language : Chinese
Default : No
Forced : No

Subtitle #4
ID : 7
Format : VobSub
Muxing mode : zlib
Codec ID : S_VOBSUB
Codec ID/Info : Picture based subtitle format used on DVDs
Duration : 2 h 48 min
Bit rate : 6 682 b/s
Count of elements : 2119
Stream size : 8.05 MiB (0%)
Language : Chinese
Default : No
Forced : No

Subtitle #5
ID : 8
Format : VobSub
Muxing mode : zlib
Codec ID : S_VOBSUB
Codec ID/Info : Picture based subtitle format used on DVDs
Duration : 2 h 48 min
Bit rate : 6 390 b/s
Count of elements : 1965
Stream size : 7.71 MiB (0%)
Language : French
Default : No
Forced : No

Subtitle #6
ID : 9
Format : VobSub
Muxing mode : zlib
Codec ID : S_VOBSUB
Codec ID/Info : Picture based subtitle format used on DVDs
Duration : 2 h 49 min
Bit rate : 9 391 b/s
Count of elements : 2793
Stream size : 11.4 MiB (0%)
Language : Italian
Default : No
Forced : No

Subtitle #7
ID : 10
Format : VobSub
Muxing mode : zlib
Codec ID : S_VOBSUB
Codec ID/Info : Picture based subtitle format used on DVDs
Duration : 2 h 48 min
Bit rate : 4 789 b/s
Count of elements : 2232
Stream size : 5.78 MiB (0%)
Language : Korean
Default : No
Forced : No

Subtitle #8
ID : 11
Format : VobSub
Muxing mode : zlib
Codec ID : S_VOBSUB
Codec ID/Info : Picture based subtitle format used on DVDs
Duration : 2 h 48 min
Bit rate : 7 449 b/s
Count of elements : 2245
Stream size : 8.99 MiB (0%)
Language : Portuguese
Default : No
Forced : No

Subtitle #9
ID : 12
Format : VobSub
Muxing mode : zlib
Codec ID : S_VOBSUB
Codec ID/Info : Picture based subtitle format used on DVDs
Duration : 2 h 48 min
Bit rate : 7 524 b/s
Count of elements : 2238
Stream size : 9.08 MiB (0%)
Language : Spanish
Default : No
Forced : No

Subtitle #10
ID : 13
Format : VobSub
Muxing mode : zlib
Codec ID : S_VOBSUB
Codec ID/Info : Picture based subtitle format used on DVDs
Duration : 2 h 48 min
Bit rate : 7 916 b/s
Count of elements : 2292
Stream size : 9.55 MiB (0%)
Language : Spanish
Default : No
Forced : No

Subtitle #11
ID : 14
Format : VobSub
Muxing mode : zlib
Codec ID : S_VOBSUB
Codec ID/Info : Picture based subtitle format used on DVDs
Duration : 2 h 48 min
Bit rate : 7 447 b/s
Count of elements : 2307
Stream size : 8.99 MiB (0%)
Language : Thai
Default : No
Forced : No

Subtitle #12
ID : 15
Format : UTF-8
Codec ID : S_TEXT/UTF8
Codec ID/Info : UTF-8 Plain Text
Duration : 2 h 48 min
Bit rate : 80 b/s
Count of elements : 2343
Stream size : 99.8 KiB (0%)
Language : Arabic
Default : No
Forced : No

Subtitle #13
ID : 16
Format : UTF-8
Codec ID : S_TEXT/UTF8
Codec ID/Info : UTF-8 Plain Text
Duration : 2 h 44 min
Bit rate : 113 b/s
Count of elements : 1626
Stream size : 137 KiB (0%)
Language : Bengali
Default : No
Forced : No

Subtitle #14
ID : 17
Format : UTF-8
Codec ID : S_TEXT/UTF8
Codec ID/Info : UTF-8 Plain Text
Duration : 2 h 48 min
Bit rate : 43 b/s
Count of elements : 2296
Stream size : 53.4 KiB (0%)
Language : Czech
Default : No
Forced : No

Subtitle #15
ID : 18
Format : UTF-8
Codec ID : S_TEXT/UTF8
Codec ID/Info : UTF-8 Plain Text
Duration : 2 h 48 min
Bit rate : 42 b/s
Count of elements : 1536
Stream size : 52.9 KiB (0%)
Language : Danish
Default : No
Forced : No

Subtitle #16
ID : 19
Format : UTF-8
Codec ID : S_TEXT/UTF8
Codec ID/Info : UTF-8 Plain Text
Duration : 2 h 45 min
Bit rate : 82 b/s
Count of elements : 2391
Stream size : 99.2 KiB (0%)
Language : Persian
Default : No
Forced : No

Subtitle #17
ID : 20
Format : UTF-8
Codec ID : S_TEXT/UTF8
Codec ID/Info : UTF-8 Plain Text
Duration : 2 h 48 min
Bit rate : 44 b/s
Count of elements : 2284
Stream size : 55.0 KiB (0%)
Language : Finnish
Default : No
Forced : No

Subtitle #18
ID : 21
Format : UTF-8
Codec ID : S_TEXT/UTF8
Codec ID/Info : UTF-8 Plain Text
Duration : 2 h 48 min
Bit rate : 72 b/s
Count of elements : 2289
Stream size : 89.6 KiB (0%)
Language : Hebrew
Default : No
Forced : No

Subtitle #19
ID : 22
Format : UTF-8
Codec ID : S_TEXT/UTF8
Codec ID/Info : UTF-8 Plain Text
Duration : 2 h 45 min
Bit rate : 41 b/s
Count of elements : 2403
Stream size : 50.4 KiB (0%)
Language : Indonesian
Default : No
Forced : No

Subtitle #20
ID : 23
Format : UTF-8
Codec ID : S_TEXT/UTF8
Codec ID/Info : UTF-8 Plain Text
Duration : 2 h 48 min
Bit rate : 44 b/s
Count of elements : 1936
Stream size : 55.4 KiB (0%)
Language : Norwegian
Default : No
Forced : No

Subtitle #21
ID : 24
Format : UTF-8
Codec ID : S_TEXT/UTF8
Codec ID/Info : UTF-8 Plain Text
Duration : 2 h 48 min
Bit rate : 44 b/s
Count of elements : 2247
Stream size : 54.6 KiB (0%)
Language : Portuguese
Default : No
Forced : No

Subtitle #22
ID : 25
Format : UTF-8
Codec ID : S_TEXT/UTF8
Codec ID/Info : UTF-8 Plain Text
Duration : 2 h 48 min
Bit rate : 77 b/s
Count of elements : 2332
Stream size : 95.4 KiB (0%)
Language : Russian
Default : No
Forced : No

Subtitle #23
ID : 26
Format : UTF-8
Codec ID : S_TEXT/UTF8
Codec ID/Info : UTF-8 Plain Text
Duration : 2 h 48 min
Bit rate : 45 b/s
Count of elements : 2283
Stream size : 56.8 KiB (0%)
Language : Swedish
Default : No
Forced : No

Subtitle #24
ID : 27
Format : UTF-8
Codec ID : S_TEXT/UTF8
Codec ID/Info : UTF-8 Plain Text
Duration : 2 h 48 min
Bit rate : 106 b/s
Count of elements : 2307
Stream size : 132 KiB (0%)
Language : Thai
Default : No
Forced : No

Subtitle #25
ID : 28
Format : UTF-8
Codec ID : S_TEXT/UTF8
Codec ID/Info : UTF-8 Plain Text
Duration : 2 h 44 min
Bit rate : 60 b/s
Count of elements : 1617
Stream size : 73.3 KiB (0%)
Language : Vietnamese
Default : No
Forced : No

Menu
00:00:00.000 : en:Chapter 01
00:09:10.341 : en:Chapter 02
00:19:06.354 : en:Chapter 03
00:27:00.744 : en:Chapter 04
00:37:51.227 : en:Chapter 05
00:46:19.986 : en:Chapter 06
00:55:46.802 : en:Chapter 07
01:05:36.474 : en:Chapter 08
01:17:19.134 : en:Chapter 09
01:29:21.565 : en:Chapter 10
01:41:02.974 : en:Chapter 11
01:49:11.336 : en:Chapter 12
01:59:33.833 : en:Chapter 13
02:05:31.774 : en:Chapter 14
02:14:25.933 : en:Chapter 15
02:22:43.889 : en:Chapter 16
02:32:57.168 : en:Chapter 17
02:42:15.643 : en:Chapter 18
02:44:52.508 : en:Chapter 19



Source Information

Code:

Release: It.Chapter.Two.2019.UHD.BluRay.2160p.TrueHD.Atmos.7.1.HEVC.REMUX-FraMeSToR.mkv (68.89 GBs)



Code:


Note From UTR
Whilst we are happy for our releases to be re-posted on a platform we aren't on, please do so in an 'as-is' format. We ask that you do not create a new torrent, include all descriptions you see above including the UTR logo, tags, notes and screenshots. If you'd like to become a permanent poster on a website we don't post to, feel free to get in contact with a UTR member.
If possible please donate for seedboxes.
BTC - 1QA5fum5AyXvWzdVCkQzUNvw3Ef15fHRaR
Monero - 8AuksPSzY7fen3HHT1a2342PgVy4J93MKfXG3AAcayV76miTyJ3sNfn38srwrpLirGfeR5DwhTL8GW8pdQgT7bZcJ25ynMx
Dash - Xh4mNs6uwZdpCEX2HSEVwGvPD7yKxZ1Ccd
Ethereum - 0x51c06c94e74c16735a7a6e841ad29fc90a84eb1f




Files:

  • It Chapter Two (2019) [1080p x265 q22 S79 Joy].mkv (3.5 GB)

Comments

Code:

  • udp://tracker.opentrackr.org:1337/announce
  • udp://tracker.coppersurfer.tk:6969/announce
  • udp://9.rarbg.com:2710/announce
  • udp://9.rarbg.to:2710/announce
  • udp://tracker.torrent.eu.org:451/announce
  • udp://exodus.desync.com:6969/announce
  • udp://tracker.tiny-vps.com:6969/announce
  • udp://open.demonii.si:1337/announce
  • udp://tracker.internetwarriors.net:1337/announce