Detective Conan - TV Special Episodes 1-6 (complete)

  • Category Anime
  • Type Anime
  • Language Japanese
  • Total size 4.9 GB
  • Uploaded By VARIOUS
  • Downloads 27
  • Last checked 1 day ago
  • Date uploaded 5 days ago
  • Seeders 2
  • Leechers 0

Infohash : AB44A5214F9353F0CD269F44D5E9DFFF1E24C9ED



Detective Conan - TV Special Episodes 1-6 (complete)

TV Episode 1 - Time Travel of the Silver Sky (2004)
TV Episode 2 - Black History (2007)
TV Episode 3 - Lupin III vs Detective Conan (2009)
TV Episode 4 - The Fugitive Mouri Kogoro (2014)
TV Episode 5 - Disappearance of Edogawa Conan (2014)
TV Episode 6 - ”ONE” The Great Detective Turned Small (2016)


Code:


CONAN\TV Special Episodes 1-6 (complete)
=======================================

See: https://www.detectiveconanworld.com/wiki/TV_Specials

Note: All soft-subbed .mkv except TV1 which is hard-subbed .avi

=========================================================

General
Complete name                            : H:\NICO\ANIME\CONAN\TV Special Episodes\Detective Conan - TV1 - Time Travel of the Silver Sky (2004) [KnKF] [XviD] [F70BB99C].avi
Format                                   : AVI
Format/Info                              : Audio Video Interleave
File size                                : 175 MiB
Duration                                 : 24 min 59 s
Overall bit rate                         : 980 kb/s
Writing application                      : VirtualDubMod 1.5.10.1 (build 2366/release)
Writing library                          : VirtualDubMod build 2366/release

Video
ID                                       : 0
Format                                   : MPEG-4 Visual
Format profile                           : Advanced [email protected]
Format settings                          : BVOP2
Format settings, BVOP                    : 2
Format settings, QPel                    : No
Format settings, GMC                     : No warppoints
Format settings, Matrix                  : Default (H.263)
Muxing mode                              : Packed bitstream
Codec ID                                 : XVID
Codec ID/Hint                            : XviD
Duration                                 : 24 min 59 s
Bit rate                                 : 840 kb/s
Width                                    : 640 pixels
Height                                   : 480 pixels
Display aspect ratio                     : 4:3
Frame rate                               : 29.970 (30000/1001) FPS
Color space                              : YUV
Chroma subsampling                       : 4:2:0
Bit depth                                : 8 bits
Scan type                                : Progressive
Compression mode                         : Lossy
Bits/(Pixel*Frame)                       : 0.091
Stream size                              : 150 MiB (86%)
Writing library                          : XviD 1.0.1 (UTC 2004-06-05)

Audio
ID                                       : 1
Format                                   : MPEG Audio
Format version                           : Version 1
Format profile                           : Layer 3
Format settings                          : Joint stereo / MS Stereo
Codec ID                                 : 55
Codec ID/Hint                            : MP3
Duration                                 : 24 min 59 s
Bit rate mode                            : Constant
Bit rate                                 : 128 kb/s
Channel(s)                               : 2 channels
Sampling rate                            : 48.0 kHz
Compression mode                         : Lossy
Stream size                              : 22.9 MiB (13%)
Alignment                                : Split accross interleaves
Interleave, duration                     : 33  ms (1.00 video frame)
Interleave, preload duration             : 500  ms

________________________________________________________________________

General
Unique ID                                : 214929897437522312182578583050186492097 (0xA1B1FE1739D91E90ACC5F40EE18588C1)
Complete name                            : H:\NICO\ANIME\CONAN\TV Special Episodes\Detective Conan - TV2 - Black History (2007) [Buffer72] [D4ED18E7].mkv
Format                                   : Matroska
Format version                           : Version 4
File size                                : 177 MiB
Duration                                 : 23 min 59 s
Overall bit rate                         : 1 029 kb/s
Encoded date                             : UTC 2018-12-07 11:15:47
Writing application                      : mkvmerge v29.0.0 ('Like It Or Not') 64-bit
Writing library                          : libebml v1.3.6 + libmatroska v1.4.9

Video
ID                                       : 1
Format                                   : MPEG-4 Visual
Format profile                           : [email protected]
Format settings, BVOP                    : No
Format settings, QPel                    : No
Format settings, GMC                     : No warppoints
Format settings, Matrix                  : Default (H.263)
Codec ID                                 : V_MS/VFW/FOURCC / XVID
Codec ID/Hint                            : XviD
Duration                                 : 23 min 59 s
Bit rate                                 : 835 kb/s
Width                                    : 640 pixels
Height                                   : 480 pixels
Display aspect ratio                     : 4:3
Frame rate mode                          : Constant
Frame rate                               : 23.976 (23976/1000) FPS
Color space                              : YUV
Chroma subsampling                       : 4:2:0
Bit depth                                : 8 bits
Scan type                                : Progressive
Compression mode                         : Lossy
Bits/(Pixel*Frame)                       : 0.113
Stream size                              : 143 MiB (81%)
Writing library                          : XviD 1.2.0.dev47 (UTC 2006-11-01)
Language                                 : Japanese
Default                                  : Yes
Forced                                   : No

Audio
ID                                       : 2
Format                                   : MPEG Audio
Format version                           : Version 1
Format profile                           : Layer 3
Format settings                          : Joint stereo / MS Stereo
Codec ID                                 : A_MPEG/L3
Codec ID/Hint                            : MP3
Duration                                 : 23 min 59 s
Bit rate mode                            : Constant
Bit rate                                 : 192 kb/s
Channel(s)                               : 2 channels
Sampling rate                            : 48.0 kHz
Frame rate                               : 41.667 FPS (1152 SPF)
Compression mode                         : Lossy
Stream size                              : 33.0 MiB (19%)
Writing library                          : LAME3.97 (beta)
Language                                 : Japanese
Default                                  : Yes
Forced                                   : No

Text
ID                                       : 3
Format                                   : ASS
Codec ID                                 : S_TEXT/ASS
Codec ID/Info                            : Advanced Sub Station Alpha
Duration                                 : 23 min 53 s
Bit rate                                 : 116 b/s
Count of elements                        : 377
Compression mode                         : Lossless
Stream size                              : 20.4 KiB (0%)
Language                                 : English
Default                                  : Yes
Forced                                   : No
________________________________________________________________________

General
Unique ID                                : 92508711638697027408705157973816986338 (0x459887A010ECCEC6917BDD9777254AE2)
Complete name                            : H:\NICO\ANIME\CONAN\TV Special Episodes\Detective Conan - TV3 - Lupin III vs. Detective Conan (2009) [M-L] [1080p] [3941F580].mkv
Format                                   : Matroska
Format version                           : Version 4
File size                                : 3.36 GiB
Duration                                 : 1 h 46 min
Overall bit rate mode                    : Variable
Overall bit rate                         : 4 508 kb/s
Encoded date                             : UTC 2014-08-25 23:06:29
Writing application                      : mkvmerge v6.9.1 ('Blue Panther') 64bit built on Apr 21 2014 16:21:33
Writing library                          : libebml v1.3.0 + libmatroska v1.4.1
Attachments                              : A-OTF-ShinGoPro-Medium.otf / FOT-NewRodinPro-B.otf / FOT-SkipStd-B.otf / PTSansNonligature-Bold.otf / PTSansNonligature-BoldItalic.otf / TakaoPGothic.ttf

Video
ID                                       : 1
Format                                   : AVC
Format/Info                              : Advanced Video Codec
Format profile                           : [email protected]
Format settings                          : CABAC / 16 Ref Frames
Format settings, CABAC                   : Yes
Format settings, RefFrames               : 16 frames
Codec ID                                 : V_MPEG4/ISO/AVC
Duration                                 : 1 h 46 min
Width                                    : 1 920 pixels
Height                                   : 1 080 pixels
Display aspect ratio                     : 16:9
Frame rate mode                          : Constant
Frame rate                               : 23.976 (24000/1001) FPS
Color space                              : YUV
Chroma subsampling                       : 4:2:0
Bit depth                                : 8 bits
Scan type                                : Progressive
Writing library                          : x264 core 142 r2409 d6b4e63
Encoding settings                        : cabac=1 / ref=16 / deblock=1:0:0 / analyse=0x3:0 / me=umh / subme=10 / psy=1 / psy_rd=1.00:0.00 / mixed_ref=1 / me_range=36 / chroma_me=1 / trellis=2 / 8x8dct=1 / cqm=0 / deadzone=21,11 / fast_pskip=0 / chroma_qp_offset=-2 / threads=6 / lookahead_threads=1 / sliced_threads=0 / nr=0 / decimate=1 / interlaced=0 / bluray_compat=0 / constrained_intra=0 / bframes=16 / b_pyramid=2 / b_adapt=2 / b_bias=0 / direct=1 / weightb=1 / open_gop=0 / weightp=2 / keyint=250 / keyint_min=23 / scenecut=40 / intra_refresh=0 / rc_lookahead=40 / rc=crf / mbtree=1 / crf=17.0 / qcomp=0.60 / qpmin=0 / qpmax=69 / qpstep=4 / ip_ratio=1.40 / aq=1:1.00
Language                                 : English
Default                                  : Yes
Forced                                   : No

Audio
ID                                       : 2
Format                                   : FLAC
Format/Info                              : Free Lossless Audio Codec
Codec ID                                 : A_FLAC
Duration                                 : 1 h 46 min
Bit rate mode                            : Variable
Channel(s)                               : 6 channels
Channel layout                           : L R C LFE Ls Rs
Sampling rate                            : 48.0 kHz
Bit depth                                : 16 bits
Compression mode                         : Lossless
Writing library                          : Lavf55.38.100
Language                                 : Japanese
Default                                  : Yes
Forced                                   : No

Text
ID                                       : 3
Format                                   : ASS
Codec ID                                 : S_TEXT/ASS
Codec ID/Info                            : Advanced Sub Station Alpha
Compression mode                         : Lossless
Language                                 : English
Default                                  : Yes
Forced                                   : No

Menu
00:00:00.000                             : en:The Moonlight Magician
00:05:51.434                             : en:Opening
00:08:03.858                             : en:Tense Relations
00:10:06.022                             : en:The Quiz
00:13:22.260                             : en:The Anti-Lupin Taskforce
00:16:24.317                             : en:The Way to the Stars
00:17:25.461                             : en:The Cherry Sapphire
00:23:10.973                             : en:The Getaway
00:28:08.312                             : en:Sakurasaku Hotel
00:33:09.571                             : en:The Call of a Case
00:35:15.405                             : en:Discussions and Departures
00:44:00.346                             : en:Searching and Sightseeing
00:51:00.057                             : en:Saving Lives
00:54:38.317                             : en:Confessions and Commitments
00:59:32.861                             : en:Children and Thieves
01:01:50.206                             : en:Making Plans
01:05:02.357                             : en:Seeking Tomorrow
01:07:55.113                             : en:Rehearsal and Preparations
01:12:16.874                             : en:Secrets of the Concert
01:16:42.389                             : en:The Deal
01:24:31.566                             : en:Reaching for the Sky
01:27:13.145                             : en:The Last Hurdle Awaits
01:30:30.467                             : en:Deductions and Disaster
01:38:47.797                             : en:Closings and Credits
01:46:43.397                             : en:End of File
________________________________________________________________________

General
Unique ID                                : 207342932362381746203631887362297239394 (0x9BFCCBD50877EB1B756DE72B6F551762)
Complete name                            : H:\NICO\ANIME\CONAN\TV Special Episodes\Detective Conan - TV4 - The Fugitive Mouri Kogoro (2014) [Nyaa] [576p] [530CCAA2].mkv
Format                                   : Matroska
Format version                           : Version 4
File size                                : 175 MiB
Duration                                 : 22 min 15 s
Overall bit rate                         : 1 098 kb/s
Encoded date                             : UTC 2018-12-07 11:06:53
Writing application                      : mkvmerge v29.0.0 ('Like It Or Not') 64-bit
Writing library                          : libebml v1.3.6 + libmatroska v1.4.9

Video
ID                                       : 1
Format                                   : AVC
Format/Info                              : Advanced Video Codec
Format profile                           : [email protected]
Format settings                          : CABAC / 3 Ref Frames
Format settings, CABAC                   : Yes
Format settings, RefFrames               : 3 frames
Codec ID                                 : V_MPEG4/ISO/AVC
Duration                                 : 22 min 15 s
Bit rate                                 : 968 kb/s
Width                                    : 1 024 pixels
Height                                   : 576 pixels
Display aspect ratio                     : 16:9
Frame rate mode                          : Constant
Frame rate                               : 25.000 FPS
Color space                              : YUV
Chroma subsampling                       : 4:2:0
Bit depth                                : 8 bits
Scan type                                : Progressive
Bits/(Pixel*Frame)                       : 0.066
Stream size                              : 154 MiB (88%)
Writing library                          : x264 core 125 r2209 68dfb7b
Encoding settings                        : cabac=1 / ref=3 / deblock=1:0:0 / analyse=0x3:0x113 / me=hex / subme=7 / psy=1 / psy_rd=1.00:0.00 / mixed_ref=1 / me_range=16 / chroma_me=1 / trellis=1 / 8x8dct=1 / cqm=0 / deadzone=21,11 / fast_pskip=1 / chroma_qp_offset=-4 / threads=2 / lookahead_threads=1 / sliced_threads=0 / nr=0 / decimate=1 / interlaced=0 / bluray_compat=0 / constrained_intra=0 / bframes=0 / weightp=2 / keyint=250 / keyint_min=25 / scenecut=40 / intra_refresh=0 / rc=crf / mbtree=0 / crf=23.0 / qcomp=0.60 / qpmin=0 / qpmax=69 / qpstep=4 / ip_ratio=1.40 / aq=1:1.00
Default                                  : Yes
Forced                                   : No

Audio
ID                                       : 2
Format                                   : MPEG Audio
Format version                           : Version 1
Format profile                           : Layer 3
Format settings                          : Joint stereo / MS Stereo
Codec ID                                 : A_MPEG/L3
Codec ID/Hint                            : MP3
Duration                                 : 22 min 15 s
Bit rate mode                            : Constant
Bit rate                                 : 128 kb/s
Channel(s)                               : 2 channels
Sampling rate                            : 44.1 kHz
Frame rate                               : 38.281 FPS (1152 SPF)
Compression mode                         : Lossy
Stream size                              : 20.4 MiB (12%)
Writing library                          : LAME3.97
Default                                  : Yes
Forced                                   : No

Text
ID                                       : 3
Format                                   : ASS
Codec ID                                 : S_TEXT/ASS
Codec ID/Info                            : Advanced Sub Station Alpha
Duration                                 : 22 min 14 s
Bit rate                                 : 249 b/s
Count of elements                        : 447
Compression mode                         : Lossless
Stream size                              : 40.7 KiB (0%)
Default                                  : Yes
Forced                                   : No
________________________________________________________________________

General
Unique ID                                : 186314495498659165117594884254786337383 (0x8C2ADDD932A934A3A21836BE71D73A67)
Complete name                            : H:\NICO\ANIME\CONAN\TV Special Episodes\Detective Conan - TV5 - Disappearance of Edogawa Conan (2014) [SuiriOtaku-Kaitou] [720p] [87D27B7A].mkv
Format                                   : Matroska
Format version                           : Version 4
File size                                : 1.55 GiB
Duration                                 : 1 h 31 min
Overall bit rate                         : 2 423 kb/s
Encoded date                             : UTC 2015-05-25 08:15:31
Writing application                      : mkvmerge v6.6.0 ('The Edge Of The In Between') built on Dec  1 2013 17:55:00
Writing library                          : libebml v1.3.0 + libmatroska v1.4.1
Attachments                              : ARIALN_2.TTF / ARIALNB.TTF / ARIALNB_0.TTF / ARIALNB_2.TTF / Artbrush.ttf / Artbrush_0.ttf / Artbrush_1.ttf / BellGothic-Black.otf / BellGothic-Black_0.otf / BellGothic-Black_1.otf / CABIN-BOLD.TTF / CABIN-BOLDITALIC.TTF / CABIN-ITALIC.TTF / CABIN-REGULAR.TTF / CAC Moose.ttf / CAC Moose_0.ttf / CAC Moose_1.ttf / Cagliostro-Regular.ttf / Cagliostro-Regular_0.ttf / Cagliostro-Regular_1.ttf / cgor65w.ttf / cgor65w_0.ttf / cgor65w_1.ttf / cgor66w.ttf / cgor66w_0.ttf / cgor66w_1.ttf / clar67w.ttf / clar67w_0.ttf / clar67w_1.ttf / Formata Regular.ttf / Formata.ttf / Formata-Bold.ttf / FRABK.TTF / FRABK_0.TTF / FRABK_1.TTF / FRADM.TTF / FRADM_0.TTF / FRADM_1.TTF / FRADMCN_0.TTF / FRADMCN_1.TTF / FrancophilSans_0.ttf / FrancophilSans_1.ttf / FrancophilSans_3.ttf / FrancophilSans-Bold_0.ttf / FrancophilSans-Bold_1.ttf / GenBasB.ttf / GenBasB_0.ttf / GenBasB_1.ttf / GenBasBI.ttf / GenBasBI_0.ttf / GenBasBI_1.ttf / GenBkBasB.ttf / GenBkBasB_0.ttf / GenBkBasB_1.ttf / GenBkBasR.ttf / GenBkBasR_0.ttf / georgia.ttf / georgia_0.ttf / georgia_1.ttf / georgiab.ttf / georgiab_0.ttf / georgiab_1.ttf / georgiai.ttf / georgiaz.ttf / GLECB.TTF / GLECB_0.TTF / GLECB_1.TTF / GRAVS__.TTF / GRAVS___.TTF / gunshipcond.ttf / IwaOMinPro-Bd-Fate.ttf / IwaOMinPro-Bd-Fate_0.ttf / KozGoPro-Bold.otf / KozGoPro-Bold_0.otf / KozGoPro-Bold_2.otf / Merienda-Bold.ttf / Merienda-Regular.ttf / Quicksand Book.otf / tahoma.ttf / tahoma_0.ttf / Ubuntu-B.ttf / Ubuntu-BI.ttf / Ubuntu-C.ttf / Ubuntu-L.ttf / Ubuntu-LI.ttf / Ubuntu-M.ttf / Ubuntu-MI.ttf / UbuntuMono-B.ttf / UbuntuMono-BI.ttf / UbuntuMono-R.ttf / UbuntuMono-RI.ttf / Ubuntu-R_0.ttf / Ubuntu-R_1.ttf / Ubuntu-R_3.ttf / Ubuntu-RI.ttf / Ubuntu-Title.ttf / ubuntu-title-fr-1.1.ttf / VINERITC.TTF / VINERITC_0.TTF / VINERITC_1.TTF / 3f011b562f157c743f05ce4f4ccd2a8e.otf / a song for jennifer bold.ttf / ARIALN.TTF / ARIALN_0.TTF / Lato-Italic.ttf / Lato-Light.ttf / Lato-LightItalic.ttf / Lato-Regular.ttf / Lato-Black.ttf / Lato-BlackItalic.ttf / Lato-Bol.ttf / Lato-BoldItalic.ttf / cgtr65w.ttf / cgtr66w.ttf / ARCHRISTY.ttf / cgtr45w.ttf / cgtr46w.ttf

Video
ID                                       : 1
Format                                   : AVC
Format/Info                              : Advanced Video Codec
Format profile                           : High [email protected]
Format settings                          : CABAC / 16 Ref Frames
Format settings, CABAC                   : Yes
Format settings, RefFrames               : 16 frames
Codec ID                                 : V_MPEG4/ISO/AVC
Duration                                 : 1 h 31 min
Width                                    : 1 280 pixels
Height                                   : 720 pixels
Display aspect ratio                     : 16:9
Frame rate mode                          : Constant
Frame rate                               : 23.976 (24000/1001) FPS
Color space                              : YUV
Chroma subsampling                       : 4:2:0
Bit depth                                : 10 bits
Scan type                                : Progressive
Title                                    : [KaitOtaku] Detective Conan - The Disappearance of Edogawa Conan: The Worst Two Days In History [YTV H.264 720p 10bit]
Writing library                          : x264 core 142 r2431+42 c69a006 tMod [[email protected] X86]
Encoding settings                        : cabac=1 / ref=16 / deblock=1:-1:1 / analyse=0x3:0x133 / me=umh / subme=10 / psy=1 / fade_compensate=0.80 / psy_rd=0.80:0.10 / mixed_ref=1 / me_range=32 / chroma_me=1 / trellis=2 / 8x8dct=1 / cqm=0 / deadzone=21,11 / fast_pskip=1 / chroma_qp_offset=-2 / threads=12 / lookahead_threads=3 / sliced_threads=0 / nr=0 / decimate=1 / interlaced=0 / bluray_compat=0 / constrained_intra=0 / fgo=0 / bframes=16 / b_pyramid=2 / b_adapt=2 / b_bias=0 / direct=3 / weightb=1 / open_gop=0 / weightp=2 / keyint=240 / keyint_min=24 / scenecut=40 / intra_refresh=0 / rc_lookahead=60 / rc=crf / mbtree=1 / crf=17.0000 / qcomp=0.60 / qpmin=0:0:0 / qpmax=81:81:81 / qpstep=4 / ip_ratio=1.40 / aq=3:0.95 / aq-sensitivity=10.00 / aq-factor=1.00:1.00:1.00 / aq2=0 / aq3=0
Language                                 : Japanese
Default                                  : Yes
Forced                                   : No
Color range                              : Limited
Color primaries                          : BT.709
Transfer characteristics                 : BT.709
Matrix coefficients                      : BT.709

Audio
ID                                       : 2
Format                                   : AAC LC
Format/Info                              : Advanced Audio Codec Low Complexity
Codec ID                                 : A_AAC-2
Duration                                 : 1 h 31 min
Channel(s)                               : 2 channels
Channel layout                           : L R
Sampling rate                            : 48.0 kHz
Frame rate                               : 46.875 FPS (1024 SPF)
Compression mode                         : Lossy
Title                                    : [KaitOtaku] Detective Conan - The Disappearance of Edogawa Conan: The Worst Two Days In History [AAC 2.0]
Language                                 : Japanese
Default                                  : Yes
Forced                                   : No

Text
ID                                       : 3
Format                                   : ASS
Codec ID                                 : S_TEXT/ASS
Codec ID/Info                            : Advanced Sub Station Alpha
Compression mode                         : Lossless
Title                                    : [KaitOtaku] Detective Conan - The Disappearance of Edogawa Conan: The Worst Two Days In History
Language                                 : English
Default                                  : Yes
Forced                                   : No

Menu
00:00:00.000                             : en:Prologue
00:01:30.048                             : en:Intro
00:03:59.531                             : en:Malfunction
00:18:21.976                             : en:Luxury Apartment
00:22:32.935                             : en:Pursuit
00:30:07.889                             : en:Kamen Yaiba Exhibit
00:57:13.889                             : en:Deduction
01:15:38.868                             : en:Checkmate
01:26:52.207                             : en:Invincible Heart by Kuraki Mai
01:27:44.843                             : en:None of This Makes Sense
01:28:31.932                             : en:Dynamite by Kuraki Mai
01:29:33.994                             : en:Epilogue
01:31:09.965                             : en:Sunflowers of Inferno
________________________________________________________________________

General
Unique ID                                : 247394439506976029953066933710627465549 (0xBA1E6F97F01961E3D2E9F2EF68D6E94D)
Complete name                            : H:\NICO\ANIME\CONAN\TV Special Episodes\Detective Conan - TV6 - ”ONE” The Great Detective Turned Small (2016) [Kienai] [7A3867E9].mkv
Format                                   : Matroska
Format version                           : Version 4
File size                                : 1.46 GiB
Duration                                 : 1 h 35 min
Overall bit rate                         : 2 192 kb/s
Encoded date                             : UTC 2018-02-25 01:24:13
Writing application                      : mkvmerge v21.0.0 ('Tardigrades Will Inherit The Earth') 64-bit
Writing library                          : libebml v1.3.5 + libmatroska v1.4.8
Attachments                              : hu521xbc.ttf / TT0202M.TTF / GILSANUB.TTF / 11335.ttf / A-OTF-ShinGoPro-DeBold.otf / AdobeDevanagari-Regular.otf / AdobeFanHeitiStd-Bold.otf / Alberta Bold.ttf / Alberta_Italic.ttf / ANNA.ttf / ARIALNB.TTF / BLKCHCRY.TTF / comic2.ttf / Felt Tip Roman.ttf / FOT-MatisseMinoriProB-En.otf / Fun Smiles.ttf / GARA.TTF / GARABD.TTF / GIL_____.TTF / HEADOH.TTF / Helvetica LT 45 Light.ttf / Helvetica LT 46 Light Italic.ttf / Helvetica LT 55 Roman.ttf / HoratioDMed.ttf / Interstate-BoldCompressed.ttf / KozMinPr6N-H.ttf / LTe53507.ttf / LTe53508.ttf / LTe53510.ttf / Minimal_SF_Bold_Italic.ttf / MixStitch.ttf / MyriadPro-SemiboldSemiCn.otf / palab.ttf / palabi.ttf / POORICH.TTF / PoplarStd.otf / PTSans_bold.ttf / RifficFree-Bold.ttf / seguiemj.ttf / seguisym.ttf / Speedline.ttf / thegirlnextdoor.ttf / times.ttf / timesbd.ttf / vijaya.ttf / You're So Cool - TTF.ttf

Video
ID                                       : 1
Format                                   : AVC
Format/Info                              : Advanced Video Codec
Format profile                           : [email protected]
Format settings                          : CABAC / 16 Ref Frames
Format settings, CABAC                   : Yes
Format settings, RefFrames               : 16 frames
Codec ID                                 : V_MPEG4/ISO/AVC
Duration                                 : 1 h 35 min
Bit rate                                 : 1 503 kb/s
Width                                    : 1 280 pixels
Height                                   : 720 pixels
Display aspect ratio                     : 16:9
Frame rate mode                          : Constant
Frame rate                               : 23.976 (24000/1001) FPS
Color space                              : YUV
Chroma subsampling                       : 4:2:0
Bit depth                                : 8 bits
Scan type                                : Progressive
Bits/(Pixel*Frame)                       : 0.068
Stream size                              : 1.00 GiB (69%)
Title                                    : H.264
Writing library                          : x264 core 152 r2851 ba24899
Encoding settings                        : cabac=1 / ref=16 / deblock=1:0:0 / analyse=0x3:0x133 / me=umh / subme=9 / psy=1 / psy_rd=1.00:0.00 / mixed_ref=1 / me_range=24 / chroma_me=1 / trellis=2 / 8x8dct=1 / cqm=0 / deadzone=21,11 / fast_pskip=1 / chroma_qp_offset=-2 / threads=18 / lookahead_threads=3 / sliced_threads=0 / nr=0 / decimate=1 / interlaced=0 / bluray_compat=0 / constrained_intra=0 / bframes=8 / b_pyramid=0 / b_adapt=2 / b_bias=0 / direct=3 / weightb=1 / open_gop=0 / weightp=2 / keyint=240 / keyint_min=23 / scenecut=40 / intra_refresh=0 / rc=cqp / mbtree=0 / qp=20 / ip_ratio=1.40 / pb_ratio=1.30 / aq=0
Language                                 : Japanese
Default                                  : Yes
Forced                                   : Yes

Audio
ID                                       : 2
Format                                   : AC-3
Format/Info                              : Audio Coding 3
Commercial name                          : Dolby Digital
Codec ID                                 : A_AC3
Duration                                 : 1 h 35 min
Bit rate mode                            : Constant
Bit rate                                 : 640 kb/s
Channel(s)                               : 6 channels
Channel layout                           : L R C LFE Ls Rs
Sampling rate                            : 48.0 kHz
Frame rate                               : 31.250 FPS (1536 SPF)
Bit depth                                : 16 bits
Compression mode                         : Lossy
Stream size                              : 438 MiB (29%)
Title                                    : DTS HD MA
Language                                 : Japanese
Service kind                             : Complete Main
Default                                  : Yes
Forced                                   : Yes

Text
ID                                       : 3
Format                                   : ASS
Codec ID                                 : S_TEXT/ASS
Codec ID/Info                            : Advanced Sub Station Alpha
Duration                                 : 1 h 35 min
Bit rate                                 : 5 407 b/s
Count of elements                        : 9786
Compression mode                         : Lossless
Stream size                              : 3.69 MiB (0%)
Title                                    : Kienai
Language                                 : English
Default                                  : Yes
Forced                                   : Yes

Menu
00:00:00.000                             : en:Prologue
00:02:53.965                             : en:OP1 - Mune ga Doki Doki (The Pounding of My Heart) (TV Size Version)
00:04:26.308                             : en:Chapter 3
00:17:03.939                             : en:Chapter 4
00:37:54.939                             : en:Chapter 5
00:39:05.426                             : en:OP4 - Unmei no Roulette Mawashite (Spin the Roulette of Destiny) (Episode "ONE" Special Version)
00:41:03.628                             : en:Chapter 7
01:02:54.937                             : en:Chapter 8
01:27:47.387                             : en:Two Months Later (Epilogue)
01:31:20.975                             : en:OP1 - Mune ga Doki Doki (The Pounding of My Heart) (Full Version)
________________________________________________________________________



Files:

Detective Conan - TV Special Episodes
  • Detective Conan - TV Special Episodes.sfv (0.7 KB)
  • Detective Conan - TV Special Episodes 1-6 (complete) - MediaInfo.txt (30.6 KB)
  • Detective Conan - TV4 - The Fugitive Mouri Kogoro (2014) [Nyaa] [576p] [530CCAA2].mkv (174.8 MB)
  • Detective Conan - TV1 - Time Travel of the Silver Sky (2004) [KnKF] [XviD] [F70BB99C].avi (175.1 MB)
  • Detective Conan - TV2 - Black History (2007) [Buffer72] [XviD] [D4ED18E7].mkv (176.5 MB)
  • Detective Conan - TV3 - Lupin III vs Detective Conan (2009) [Frostii-DCTP] [BD] [720p] [07CEE0B0].mkv (1.4 GB)
  • Detective Conan - TV6 - ”ONE” The Great Detective Turned Small (2016) [Kienai] [720p] [7A3867E9].mkv (1.5 GB)
  • Detective Conan - TV5 - Disappearance of Edogawa Conan (2014) [SuiriOtaku-Kaitou] [720p] [87D27B7A].mkv (1.6 GB)

There are currently no comments. Feel free to leave one :)

Code:

  • udp://open.stealth.si:80/announce
  • udp://tracker.opentrackr.org:1337/announce
  • udp://tracker.coppersurfer.tk:6969/announce
  • udp://exodus.desync.com:6969/announce
  • udp://9.rarbg.com:2780/announce
  • udp://tracker.internetwarriors.net:1337/announce
  • udp://open.demonii.si:1337/announce
  • udp://explodie.org:6969/announce
  • udp://tracker.torrent.eu.org:451/announce
  • udp://tracker.tiny-vps.com:6969/announce
  • udp://tracker.iamhansen.xyz:2000/announce
  • udp://tracker.supertracker.net:1337/announce
  • udp://tracker.cyberia.is:6969/announce
  • udp://tracker.pirateparty.gr:6969/announce
  • udp://tracker.birkenwald.de:6969/announce